10 Жизней Кота Титаника скачать торрент

      Комментарии к записи 10 Жизней Кота Титаника скачать торрент отключены

Уважаемый гость, на данной странице Вам доступен материал по теме: 10 Жизней Кота Титаника скачать торрент. Скачивание возможно на компьютер и телефон через торрент, а также сервер загрузок по ссылке ниже. Рекомендуем также другие статьи из категории «Журналы».

Десять жизней кота Титаника

Стаж: 8 лет 9 месяцев

vedigo · 08-Дек-12 01:54 (5 лет 5 месяцев назад, ред. 02-Янв-14 10:16)

Десять жизней кота Титаника / Titanics ti liv / The Ten Lives of Titanic the Cat

Жанр : Детектив, семейный

Год выпуска : 2007

Перевод : Профессиональный (двухголосый закадровый) Детский

Оригинальная аудиодорожка : нет

Режиссер : Грета Бёэ / Grethe Bøe

В ролях : Тирил Эег Хенриксен, Мартин Мбугуа, Анне Риг, Кристиан Скольмен, Эдвард Лёвольд Гаукстад, Соссен Крог, Сесили Мосли, Оле Мартин Вёльнер

Описание : 12-летняя Лив на день рождения получает подарок своей мечты — билеты на путешествие на пароходе. В тот же день начинают происходить таинственные события. Лив с другом находят в подвале потайную комнату. Затем из ниоткуда появляется черный кот и она получает странные видения из другого времени. Кто-то пытается сказать ей о катастрофе на море, которая произошла почти 100 лет назад. Взрослые не принимают всерьез ее страхи и сомнения. Девочка со своим другом решают разгадать тайну сами.

Качество видео : SATRip

Формат видео : AVI

Видео : DivX 5 720×400 (16:9) 25.00fps Bit rate 1249 Kbps Bits/(Pixel*Frame) 0.173

Аудио : MP3 48000Hz 2ch 128Kbps

Complete name : F:\SatRip\_Заготовка\_Новые_1\Десять жизней кота Титаника\Десять жизней кота Титаника.avi

Format/Info : Audio Video Interleave

File size : 713 MiB

Duration : 1h 11mn

Overall bit rate : 1 387 Kbps

Writing library : VirtualDub build 32842/release

Format : MPEG-4 Visual

Format settings, BVOP : Yes

Format settings, QPel : No

Format settings, GMC : No warppoints

Format settings, Matrix : Default (H.263)

Muxing mode : Packed bitstream

Codec ID/Hint : DivX 5

Duration : 1h 11mn

Bit rate : 1 249 Kbps

Width : 720 pixels

Height : 400 pixels

Display aspect ratio : 16:9

Frame rate : 25.000 fps

Color space : YUV

Chroma subsampling : 4:2:0

Bit depth : 8 bits

Scan type : Progressive

Stream size : 642 MiB (90%)

Writing library : DivX 6.8.5 (UTC 2009-08-20)

Format : MPEG Audio

Format version : Version 1

Format profile : Layer 3

Mode : Joint stereo

Mode extension : MS Stereo

Codec ID/Hint : MP3

Duration : 1h 11mn

Bit rate mode : Constant

Bit rate : 128 Kbps

Channel(s) : 2 channels

Sampling rate : 48.0 KHz

Stream size : 65.8 MiB (9%)

Alignment : Split accross interleaves

Interleave, duration : 40 ms (1.00 video frame)

Десять жизней кота Титаника. На этом данная статья подошла к завершению. Следите за обновлениями на нашем сайте. Получить дополнительную информацию, а также задать свои вопросы можно в комментариях.


Статьи по теме